[Libav-user] 981204 - Can't omit data stream

classic Classic list List threaded Threaded
1 message Options
Reply | Threaded
Open this post in threaded view
|

[Libav-user] 981204 - Can't omit data stream

hamidi
Given the source video with the following streams:

    Stream #0:0(und): Video: hevc (Main) (hev1 / 0x31766568), yuv420p(tv, progressive), 694x570 [SAR 16:15 DAR 5552:4275], 261 kb/s, 25 fps, 25 tbr, 12800 tbn, 25 tbc (default)
    Stream #0:1(dan): Audio: mp3 (mp4a / 0x6134706D), 48000 Hz, stereo, fltp, 128 kb/s (default)
    Stream #0:2(eng): Data: bin_data (text / 0x74786574)

the following command doesn't omit the data stream:

ffmpeg -i input.mp4 -c copy -map 0:0 -map 0:1 output.mp4

Even adding -dn doesn't omit it.

Why?

_______________________________________________
Libav-user mailing list
[hidden email]
https://ffmpeg.org/mailman/listinfo/libav-user

To unsubscribe, visit link above, or email
[hidden email] with subject "unsubscribe".